国配影迷社区

 会员注册
 找回密码

QQ登录

用QQ快速登录该站

搜索
热搜: 悬疑
123下一页
返回列表 发新帖
查看: 26|回复: 23

[剧情] 【终极收藏】【大鬧廣昌隆/女機械人】【1993】【靑山织可子經典兩部曲】【BD1080P】【国粤双语】【MKV-8.8G/8.7G】【百度云】

 

高级等级组 Rank: 8Rank: 8
阅读权限:
150

2

帖子

590

积分

296

威望
资源量:12  Mini重:30

贡献大使荣誉VIP

 在线:2269时 注册:21-3-13
雪泥鸿爪 发表于 2021-7-18 21:41
本帖最后由 雪泥鸿爪 于 2022-2-9 21:00 编辑
p2584921957_mh1626615147003.jpg
导演: 陈果
编剧: 陈庆嘉 / 张小娴
主演: 郑丹瑞 / 吴大维 / 陶君薇 / 靑山知可子
类型: 剧情 / 爱情 / 恐怖
制片国家/地区: 中国香港
拍摄语言: 粤语
上映日期: 1993-11-06(中国香港)
片长: 94 分钟
又名: Finale in Blood
8.8 (20w)  6.8(3442人)
57(94)
豆瓣ID: 1305059 / IMDB链接: tt0101644
豆瓣链接:https://movie.douban.com/subject/1305059/
发布时间: 2021-7-18
最近更新时间: 2022-2-9 21:00
©评分票房由[Russellan]整理获取


大闹广昌隆的剧情简介  郑明宝(郑丹瑞 饰)是香港某电台播报猪肉价格的DJ,他的朋友陈七本想托他走私药品,没想到郑明宝把事情搞砸,害得他锒铛入狱。郑明宝无意中得到了一把雨伞,并由此结识了冥间女鬼方茵(陶君薇 饰),为此,郑明宝专门做了一档晚间鬼故事的节目,由方茵现身说法,收听率居高不下,连当红DJ蕾莎(顾美华 饰)也对他另眼相看,暗送秋波。   节目中,方茵讲述了自己的一段被负心汉欺骗、惨遭情敌迫害致死的过程。原来,她本是从南洋来香港接管广昌隆饭店的女继承人,偶然见邂逅了警察马光燊(吴大维 饰),并堕入爱河。但是,马光燊其实是个花花公子,几次三番伤害了方茵纯洁的感情。特别是当他的情妇(青山知可子 饰)登堂入室后,更是把伤心欲绝的方茵逼上了绝路……
影片花絮:
1991年,陈果正在协助区丁平导演拍摄《何日君再来》时,因演员档期问题而停拍一阵子,电影公司便要陈果利用现成的布景拍摄影片,于是就有了他的处女作电影。该片曾被片商雪藏过3年,而且上映时毫无宣传配合,即使如此境遇,该片的票房排位在100名左右已够收回成本,但唯一受到伤害的是陈果本人,他从此不再相信片商,绝足商业片领域,后面1997年据此翻拍的由周海媚、林家栋主演的电视剧《大闹广昌隆》获得了当年的TVB收视冠军,平均收视36,最高45。

【大鬧廣昌隆: 本片的获奖】:
第13届香港电影金像奖:最佳摄影(钟志文)   
       
 影片获奖资料与票房  By:coovm)
134441glwbjvwkzvmj8k8b_mh1626757695779.jpg
135637v80l0przzr3r88l0_mh1626757718646.jpg
134442oogij5237b2aj5g2_mh1626757730140.jpg
Finavle.In.Blood.1993. CHINESE.1080p.BluRay.x264.DTS .mkv_20210828_035723.616_副本.jpg
Finavle.In.Blood.1993. CHINESE.1080p.BluRay.x264.DTS .mkv_20210828_040100.702_副本.jpg
134455hurxypnuorxkrnpz_mh1626757740104.jpg
Roibetrix.1991.BluRay.1080p.H264.DD2.0.mkv_20210828_040542.500_副本.jpg
Roibetrix.1991.BluRay.1080p.H264.DD2.0.mkv_20210828_040644.565_副本.jpg
文件1信息:
General
Unique ID                      : 170695862797923291871864508810863813981

(0x806AD3CD820DC1CB99687D44B8D7A55D)
Complete name                  : G:\Finavle.In.Blood.1993.

CHINESE.1080p.BluRay.x264.DTS .mkv
Format                         : Matroska
Format version                 : Version 4
File size                      : 8.82 GiB
Duration                       : 1 h 34 min
Overall bit rate               : 13.3 Mb/s
Movie name                     : Finale.In.Blood.1993.CHINESE.1080p.BluRay.x264.DTS
Encoded date                   : UTC 2021-07-17 22:37:46
Writing application            : mkvmerge v7.5.0 ('Glass Culture') 32bit built on Jan  4 2015

16:37:25
Writing library                : libebml v1.3.1 + libmatroska v1.4.2
Cover                          : Yes
Attachments                    : cover_land.jpg / small_cover.jpg / small_cover_land.jpg /

cover.jpg

Video
ID                             : 1
Format                         : AVC
Format/Info                    : Advanced Video Codec
Format profile                 : High@L4.1
Format settings                : CABAC / 4 Ref Frames
Format settings, CABAC         : Yes
Format settings, Reference fra : 4 frames
Codec ID                       : V_MPEG4/ISO/AVC
Duration                       : 1 h 34 min
Bit rate                       : 11.5 Mb/s
Width                          : 1 920 pixels
Height                         : 1 080 pixels
Display aspect ratio           : 1.85:1
Frame rate mode                : Constant
Frame rate                     : 24.000 FPS
Color space                    : YUV
Chroma subsampling             : 4:2:0
Bit depth                      : 8 bits
Scan type                      : Progressive
Bits/(Pixel*Frame)             : 0.244
Stream size                    : 7.61 GiB (86%)
Title                          : vfy
Writing library                : x264 core 148 r2795M aaa9aa8

文件2信息
General
Unique ID                      : 246023892336066656572825454173275229854 (0xB9167A66A0ABBF6FB2CA4757F7DF0E9E)
Complete name                  : G:\Roibetrix.1991.BluRay.1080p.H264.DD2.0.mkv
Format                         : Matroska
Format version                 : Version 4
File size                      : 8.64 GiB
Duration                       : 1 h 38 min
Overall bit rate               : 12.6 Mb/s
Encoded date                   : UTC 2021-07-11 10:30:20
Writing application            : mkvmerge v7.5.0 ('Glass Culture') 32bit built on Jan  4 2015 16:37:25
Writing library                : libebml v1.3.1 + libmatroska v1.4.2 / ShanaEncoder

Video
ID                             : 1
Format                         : AVC
Format/Info                    : Advanced Video Codec
Format profile                 : High@L4.1
Format settings                : CABAC / 4 Ref Frames
Format settings, CABAC         : Yes
Format settings, Reference fra : 4 frames
Codec ID                       : V_MPEG4/ISO/AVC
Duration                       : 1 h 38 min
Bit rate                       : 11.8 Mb/s
Width                          : 1 920 pixels
Height                         : 1 080 pixels
Display aspect ratio           : 16:9
Frame rate mode                : Constant
Frame rate                     : 24.000 FPS
Color space                    : YUV
Chroma subsampling             : 4:2:0
Bit depth                      : 8 bits
Scan type                      : Progressive
Bits/(Pixel*Frame)             : 0.238
Stream size                    : 8.11 GiB (94%)
Title                          : bfvd
Writing library                : x264 core 157 r2969 d4099dd


下载地址:              
链接: https://pan.baidu.com/s/182_kXaAqrqseJcbAfUjLpg
备用链接: pan.baidu.com/#ID-231644 密码:
亲爱的游客:查看本帖以下隐藏内容需先回复:点此快速回复     自动显隐藏 

全网最佳画质,高码完整无删减、无水印版,不可错过的經典。





查看本帖 所有图文内容 与 下载 和 附件:

您需要先 登录     还没有帐号? 点此  注册会员    或者:

X
楼主其它主题  [大陆] 【剧情/犯罪】【电视剧】【英雄无悔】【1996】【濮存昕】【38集全】【DVD高清压制】【单集大小:600M】 百度云
[动作] 【稀有】【水手服与机关枪】 【药师丸博子成名作】 【1981】 【720P】【日语中字】【MKV-5.4G】 百度云

特级元老

Rank: 16Rank: 16Rank: 16Rank: 16

阅读权限:
150

70

帖子

250

积分

160

威望
  资源量: 20
Mini重量: 30
在线时间
3119 小时
注册时间
2021-6-5
werty 发表于 2021-7-18 21:42

回帖中奖 +5

這個挺好的
回复

特级元老

Rank: 16Rank: 16Rank: 16Rank: 16

阅读权限:
150

60

帖子

300

积分

180

威望
  资源量: 14
Mini重量: 30

活跃会员贡献大使

在线时间
6743 小时
注册时间
2019-8-5
金鱼射手 发表于 2021-7-18 21:42

回帖中奖 +5

不错不错捧个场
回复

特级元老

Rank: 16Rank: 16Rank: 16Rank: 16

阅读权限:
150

54

帖子

330

积分

192

威望
  资源量: 14
Mini重量: 30

贡献大使

在线时间
5315 小时
注册时间
2020-12-28
上帝的宠儿天恩 发表于 2021-7-18 21:46

回帖中奖 +5

不错,。
回复

特级元老

Rank: 16Rank: 16Rank: 16Rank: 16

阅读权限:
150

70

帖子

250

积分

160

威望
  资源量: 20
Mini重量: 30

活跃会员贡献大使

在线时间
4298 小时
注册时间
2020-7-1
机灵小迪子 发表于 2021-7-18 21:47

回帖中奖 +5

谢谢的
回复

特级元老

Rank: 16Rank: 16Rank: 16Rank: 16

阅读权限:
150

56

帖子

320

积分

188

威望
  资源量: 8
Mini重量: 30

活跃会员贡献大使

在线时间
8942 小时
注册时间
2020-6-30
蓝色缘分 发表于 2021-7-18 21:47

回帖中奖 +5

不错不错
回复

特级元老

Rank: 16Rank: 16Rank: 16Rank: 16

阅读权限:
150

18

帖子

510

积分

264

威望
  资源量: 18
Mini重量: 30

贡献大使

在线时间
7535 小时
注册时间
2018-12-8
堕落天使路易华 发表于 2021-7-18 21:48

回帖中奖 +5

支持了,,
回复

特级元老

Rank: 16Rank: 16Rank: 16Rank: 16

阅读权限:
150

56

帖子

320

积分

188

威望
  资源量: 19
Mini重量: 30
在线时间
3964 小时
注册时间
2019-10-18
muye15 发表于 2021-7-18 21:48

回帖中奖 +5

支持呀
回复

123下一页
返回列表 发新帖
您需要登录后才可以回帖 登录 | 会员注册

查看系统  本版 积分策略  

程序代码报错留言|程序状态对接接口api - cnzz程序历史log|最近热门词搜索记录Log|站点统计|违规名单|手机版|Cnzz数据统计日志 - 在线接入api @cnzz|国配影迷社区ccmnn



Copyright 2000-2022 © Comsenz™ DZ V3.5®
GMT+8:2022-8-13 22:33:00   Processed 6 Query in 0.021 second. CDN Cache On .
社区本身不储存资源,由译制配音网友爱好收集,严禁任何博眼球的不良或擦边类
发新主题应验证手机后, 交流应从和谐大度、从容友爱出发,不可交流任何不适容。
同时不要发一切上映国产与引进片(也含要上映的引进片与一切tc尝鲜等,保护上映与国产) 反馈@
快速回复 返回顶部 返回列表